#TITLE:Touch Fuzzy, Get Dizzy;
#SUBTITLE:;
#ARTIST:Yoshi's Island;
#TITLETRANSLIT:;
#SUBTITLETRANSLIT:;
#ARTISTTRANSLIT:;
#CREDIT:;
#BANNER:editorbox_tyler.jpg;
#BACKGROUND:touchfuzzy.png;
#LYRICSPATH:;
#CDTITLE:;
#MUSIC:touchfuzzy.mp3;
#OFFSET:-0.047;
#SAMPLESTART:35.008;
#SAMPLELENGTH:12.000;
#SELECTABLE:YES;
#BPMS:0.000=171.620,32.000=107.420,42.750=214.840,46.750=107.420,48.750=217.840,51.250=107.420,54.000=53.500,54.250=26.500,54.375=13.250,54.438=6.650,54.500=107.420,66.250=320.999,68.000=-50.000,70.000=107.420,81.750=214.840,83.750=53.540,84.750=107.420,111.250=171.620;
#STOPS:51.750=0.400
,111.250=0.095
,111.500=0.085
,111.750=0.090
,112.000=0.085
,113.250=0.085
,117.750=0.085
,118.000=0.085
,118.250=0.085
,118.500=0.085
;
#BGCHANGES:32.000=LOL.jpg=1.000=0=0=1,
38.250=touchfuzzy.png=1.000=0=0=1,
48.750=picard.jpg=1.000=0=0=1,
52.000=touchfuzzy.png=1.000=0=0=1,
56.000=yoyo.jpg=1.000=0=0=1,
60.000=touchfuzzy.png=1.000=0=0=1,
60.500=picard.jpg=1.000=0=0=1,
61.000=touchfuzzy.png=1.000=0=0=1,
61.500=wow.gif=1.000=0=0=1,
63.250=noteven.jpg=1.000=0=0=1,
66.250=SONIC.jpg=1.000=0=0=1,
76.750=lol2.jpg=1.000=0=0=1,
80.750=noteven.jpg=1.000=0=0=1,
81.750=touchfuzzy.png=1.000=0=0=1,
83.750=reggie.jpg=1.000=0=0=1,
84.750=upndown-bg.jpg=1.000=0=0=1,
88.000=wdyrw.jpg=1.000=0=0=1,
92.000=xenoflow-bg.jpg=1.000=0=0=1,
96.000=touchfuzzy.png=1.000=0=0=1,
100.000=dignity-bg.jpg=1.000=0=0=1,
104.000=fotbb-bg.png=1.000=0=0=1,
108.000=jack-bg.png=1.000=0=0=1,
110.000=editorbox_tyler.jpg=1.000=0=0=1,
111.250=touchfuzzy.png=1.000=0=0=1,
122.000=synthesizer.png=1.000=0=0=1,
132.000=touchfuzzy.png=1.000=0=0=1,
99999=-nosongbg-=1.000=0=0=0 // don't automatically add -songbackground-
;
// cache tags:
#FIRSTBEAT:0.000;
#LASTBEAT:132.000;
#SONGFILENAME:Songs/Music V.I.P ^_^/Touch Fuzzy, Get Dizzy/touchfuzzy.sm;
#HASMUSIC:1;
#HASBANNER:1;
#MUSICLENGTH:62.332;
// end cache tags

//---------------dance-single - ----------------
#NOTES:
     dance-single:
     :
     Hard:
     10:
     0.749,1.000,0.610,0.594,0.939,240.000,38.000,37.000,0.000,14.000:
1000
1000
0100
0010
0001
0000
1000
0001
,
0000
0000
0000
0001
0010
0100
0000
0000
,
1000
1000
0010
0100
1000
0000
0010
0100
,
0000
0000
0000
0001
0010
0100
1000
0000
,
0100
0100
0010
0001
0010
0000
0001
0010
,
0000
0000
0000
0010
0100
0010
0000
0000
,
0001
0001
1000
0001
0010
0000
0010
1000
,
0000
0000
0000
0001
0010
0100
1000
0000
,
0000
0000
0000
0000
0000
0000
1000
0000
0000
0000
0000
0000
0000
0000
0000
0000
0000
0000
0000
0000
0000
0000
0000
0000
1000
0000
0000
0000
0000
0000
0000
0000
0000
0000
0000
0000
0000
0000
0000
0000
0000
0000
0000
0000
0000
0000
0000
0000
0010
0000
0000
0000
0000
0000
0000
0000
0000
0000
0000
0000
0001
0000
0000
0000
0000
0000
0000
0000
0000
0000
0000
0000
0000
0000
0000
0000
0000
0000
0000
0000
0100
0000
0000
0000
0000
0000
0000
0000
0000
0000
0000
0000
0000
0000
0000
0000
0000
0000
0000
0000
0000
0000
0000
0000
0000
0000
0000
0000
0000
0000
0000
0000
0000
0000
0000
0000
0000
0000
0000
0000
0100
0000
0000
0000
0000
0000
0000
0000
0000
0000
0000
0000
0000
0000
0000
0000
0010
0000
0000
0000
0000
0000
0000
0000
0000
0000
0000
0000
0000
0000
0000
0000
0000
0000
0000
0000
0000
0000
0000
0000
0000
0000
0000
0000
0000
0000
0000
0000
0000
0000
0000
0000
0000
0000
0000
0000
0000
0000
0000
0000
0000
0000
0000
0000
0000
0000
0000
0000
0000
0000
0000
0000
,
0000
0000
0000
0000
0000
0000
0000
0000
0000
0010
0000
0000
0000
0000
0000
0001
0000
0000
0000
0000
0000
0000
0010
0000
0000
0000
0000
0100
0000
0000
0000
0000
0000
0000
0000
0000
0000
0000
0000
0100
0000
0000
0000
0000
0000
0010
0000
0000
,
0000
0100
0000
1000
0000
0000
0000
0010
0000
0001
0000
0020
0000
0000
0000
0000
,
0000
0000
0030
1000
0000
0000
0000
1000
0000
0000
0000
0200
0000
0000
0300
0000
,
0000
0000
0000
0010
0000
0000
0000
0010
0000
0000
0000
0000
0000
0100
0000
0010
,
0100
0000
0000
0000
0000
0000
0000
0000
0000
0000
0000
0000
0000
0000
0000
0000
0010
0000
0000
0000
0000
0000
0000
0000
0000
0000
0000
0000
0000
0000
0000
0000
0010
0000
0000
0000
0010
0000
0010
0020
0030
0000
0000
0000
0000
0000
0000
0000
0000
0000
0000
0000
0000
0000
0000
0000
0001
0000
0000
0000
0000
0000
0000
0000
,
0001
0001
0100
0000
0010
0100
0100
0000
,
1000
0000
0010
0000
0010
0000
0100
0000
0000
0000
0000
0000
0000
0010
0000
0001
,
0000
0000
0000
0100
0000
1000
0000
0000
0000
0010
0000
0000
0000
0000
0000
0000
,
0000
2220
3330
1110
1102
1003
1111
0201
0302
0223
1330
0220
2330
3112
1103
0000
1111
2212
3303
0110
1112
1103
0000
0000
0000
0000
0000
0000
0000
0000
0000
0000
0000
0000
0000
0000
0000
0000
0000
0000
0000
0000
0000
0000
0000
0000
0000
0000
0000
0000
0000
0000
0000
0000
0000
0000
0000
0000
0000
0000
0000
0000
0000
0000
,
0000
0000
0000
0000
0000
0000
0000
0000
0000
0000
0000
0000
0000
0010
0000
0100
,
0000
0001
0000
0010
0000
0000
0000
0000
0000
0000
0000
0010
0000
0100
0000
0000
,
0000
0010
0000
0001
0000
0000
0000
0010
0000
0000
0000
0000
0000
0000
0000
0100
,
0000
0010
0000
0110
0110
0110
0110
0001
0010
0100
0011
0100
1000
0110
0011
1000
,
0220
0000
0330
0000
0022
0000
0133
0000
2020
0000
3030
0000
0220
0330
2020
3030
0202
0303
0220
0330
2002
3003
0000
0000
0000
0000
0000
0000
0220
0000
0330
0000
,
1000
0010
0100
0001
0100
0010
1000
0010
0100
0001
0010
0100
1000
0100
0010
0001
,
1000
1000
0000
0001
0000
0000
0000
0010
0000
0000
0000
0010
0000
0000
0100
0000
,
1100
0110
0011
0110
1010
0101
0110
0011
,
1000
0100
1000
0100
1000
0100
1000
0100
1000
0010
0001
0010
0001
0010
0001
0010
,
0001
0001
0001
0001
0001
0001
0001
0001
0001
0000
0000
0000
0000
1000
1000
0100
,
0010
0001
0000
0000
0000
0010
0100
0000
0000
0000
0000
0000
0000
0000
0010
0000
,
0001
0000
0010
0000
0000
0000
0000
0100
0100
0010
0001
0010
0000
0000
0000
0000
,
0010
0000
0000
0000
0100
0000
0000
0000
0000
0000
0000
0000
0000
0000
0000
0000
0010
0000
0001
0010
0100
1000
0000
1000
0100
0010
0001
0000
0001
0010
0100
1000
,
0000
1000
0000
0001
0000
0001
0000
0010
0000
0100
0000
0010
0000
1000
0000
0000
,
0000
0010
0100
0000
0000
0000
0000
0000
0000
0000
0010
0000
1000
0001
0000
0010
,
1000
0000
0000
0000
;
